<?xml version="1.0" standalone="no"?>
<!DOCTYPE svg PUBLIC "-//W3C//DTD SVG 1.1//EN" "http://www.w3.org/Graphics/SVG/1.1/DTD/svg11.dtd" >
<svg xmlns="http://www.w3.org/2000/svg">
<metadata>
This is a custom SVG webfont generated by Font Squirrel.
Copyright   : Copyright c 2003 by Bitstream Inc All Rights Reserved
Foundry     : Bitstream Inc
Foundry URL : httpwwwbitstreamcom
</metadata>
<defs>
<font id="webfontyPy1QjYs" horiz-adv-x="1024" >
<font-face units-per-em="2048" ascent="1556" descent="-492" />
<missing-glyph horiz-adv-x="649" />
<glyph unicode=" "  horiz-adv-x="649" />
<glyph unicode="&#x09;" horiz-adv-x="649" />
<glyph unicode="&#xa0;" horiz-adv-x="649" />
<glyph unicode="!" horiz-adv-x="819" d="M309 0v254h203v-254h-203zM309 838v655h203v-655l-20 -357h-162z" />
<glyph unicode="&#x22;" horiz-adv-x="940" d="M197 938v555h170v-555h-170zM575 938v555h170v-555h-170z" />
<glyph unicode="#" horiz-adv-x="1714" d="M158 414v153h352l84 334h-322v154h361l102 415h162l-104 -415h292l105 415h160l-103 -415h312v-154h-351l-82 -334h318v-153h-357l-104 -414h-160l103 414h-293l-103 -414h-161l104 414h-315zM672 567h293l82 334h-291z" />
<glyph unicode="$" horiz-adv-x="1302" d="M170 92v180q94 -59 207 -96q109 -35 215 -35v457q-219 37 -322 123q-100 86 -100 235q0 160 109 256q104 92 313 109v235h100v-233q94 -4 180 -18q88 -16 170 -43v-175q-78 41 -170 64q-104 27 -180 29v-428q223 -33 334 -125q106 -88 107 -246q0 -168 -113 -266 q-113 -96 -328 -113v-303h-100v301q-106 4 -211 25q-102 20 -211 67zM354 973q0 -84 56 -133q53 -47 182 -70v410q-113 -12 -176 -66q-62 -52 -62 -141zM692 145q129 18 191 72q66 55 65 145q0 88 -61 140q-59 51 -195 76v-433z" />
<glyph unicode="%" horiz-adv-x="1945" d="M113 1114q0 182 94 295q92 111 249.5 111t252 -108.5t94.5 -297t-94 -299.5q-92 -109 -252 -108.5t-252 111t-92 296.5zM272 1114q0 -133 49.5 -206.5t135.5 -73.5q88 0 137 73.5t49 206.5q0 131 -49 205t-137 74q-86 0 -135.5 -74t-49.5 -205zM426 -29l934 1549h160 l-934 -1549h-160zM1143 377q0 184 94 297q92 111 252 110.5t252 -111t92 -296.5q0 -184 -94 -297q-90 -109 -250 -109q-162 0 -252 109q-94 113 -94 297zM1303 377q0 -131 49 -205t137 -74q86 0 135 74t49 205t-49 205q-51 76 -135 75q-88 0 -137 -73.5t-49 -206.5z" />
<glyph unicode="&#x26;" horiz-adv-x="1595" d="M129 461q0 129 68 241q68 115 200 211q-49 66 -73 125q-25 61 -25 123q0 162 110.5 260.5t295.5 98.5q83 0 165 -19q90 -20 168 -53v-182q-90 49 -166 71q-80 25 -147 25q-106 0 -170 -55q-66 -55 -66 -144q0 -53 29 -102q31 -53 121 -146l508 -520q58 89 92 191 q33 98 39 215h186q-12 -133 -63 -260q-51 -129 -146 -256l279 -285h-252l-143 147q-106 -92 -217 -133q-114 -43 -246 -43q-242 0 -393 138q-154 137 -154 352zM322 473q0 -145 106 -244q104 -96 266 -96q95 0 178 31q80 29 156 96l-530 543q-86 -74 -133 -162 q-43 -80 -43 -168z" />
<glyph unicode="'" horiz-adv-x="561" d="M197 938v555h170v-555h-170z" />
<glyph unicode="(" horiz-adv-x="798" d="M176 643q0 221 74 449q72 221 225 462h160q-133 -227 -198.5 -454.5t-65.5 -456.5q0 -225 65 -457q61 -219 199 -456h-160q-152 236 -225.5 463t-73.5 450z" />
<glyph unicode=")" horiz-adv-x="798" d="M164 -270q137 238 198 456q66 231 66 457q0 229 -66 457q-61 217 -198 454h160q154 -242 225 -462q74 -227 74 -449q0 -223 -74 -450.5t-225 -462.5h-160z" />
<glyph unicode="*" d="M61 858l359 195l-359 194l58 99l336 -203v377h114v-377l336 203l58 -99l-359 -194l359 -195l-58 -98l-336 203v-377h-114v377l-336 -203z" />
<glyph unicode="+" horiz-adv-x="1714" d="M217 557v170h557v557h168v-557h557v-170h-557v-557h-168v557h-557z" />
<glyph unicode="," horiz-adv-x="649" d="M158 -238l82 320v172h211v-172l-164 -320h-129z" />
<glyph unicode="-" horiz-adv-x="737" d="M100 479v164h539v-164h-539z" />
<glyph unicode="." horiz-adv-x="649" d="M219 0v254h211v-254h-211z" />
<glyph unicode="/" horiz-adv-x="688" d="M0 -190l520 1683h170l-520 -1683h-170z" />
<glyph unicode="0" horiz-adv-x="1302" d="M135 745.5q0 374.5 133 575.5q131 199 383 199t383 -199q133 -201 133 -575.5t-133 -575.5q-131 -199 -383 -199t-383 199q-133 201 -133 575.5zM338 745.5q0 -311.5 78 -460.5q80 -154 235.5 -154t235.5 154q78 150 78 461t-78 460q-80 154 -235.5 154t-235.5 -154 q-78 -149 -78 -460.5z" />
<glyph unicode="1" horiz-adv-x="1302" d="M225 1237v184l357 72h202v-1323h330v-170h-860v170h330v1139z" />
<glyph unicode="2" horiz-adv-x="1302" d="M150 0v170l313 319q180 180 250 259q92 100 135 184q39 76 39 149q0 121 -84 195q-82 74 -217 74q-100 0 -201 -33q-111 -37 -225 -100v204q127 51 227 74q109 25 195 25q236 0 370 -115q137 -117 138 -311q0 -88 -35 -174q-35 -88 -125 -195l-160 -168l-377 -387h705 v-170h-948z" />
<glyph unicode="3" horiz-adv-x="1302" d="M156 45v195q83 -49 184 -74t209 -25q190 0 289 74q100 76 100 219q0 133 -92 207t-258 74h-174v166h182q145 0 227 59q80 59 80 172q0 115 -82 176q-83 61 -233 62q-83 0 -178.5 -18.5t-208.5 -55.5v180q123 33 215 47q109 16 190 17q229 0 365 -105q133 -102 133 -282 q0 -121 -72 -209q-70 -86 -201 -119q141 -31 226 -129q82 -96 82 -242q0 -221 -151.5 -342t-432.5 -121q-94 0 -193 19q-100 18 -206 55z" />
<glyph unicode="4" horiz-adv-x="1302" d="M100 352v195l621 946h254v-973h213v-168h-213v-352h-201v352h-674zM264 520h510v797z" />
<glyph unicode="5" horiz-adv-x="1302" d="M158 35v203q80 -45 186 -72q95 -25 203 -25q176 0 274 90q100 92 101 248q0 154 -100.5 246t-274.5 92q-82 0 -162 -18q-82 -18 -164 -56v750h793v-170h-608v-367q47 16 88 23q57 8 88 8q252 0 397 -137t145 -371q0 -244 -149 -375q-152 -133 -424 -133q-86 0 -191 17 q-89 14 -202 47z" />
<glyph unicode="6" horiz-adv-x="1302" d="M143 745q0 352 168 563.5t451 211.5q82 0 153 -15q88 -18 162 -45v-184q-77 37 -153.5 55.5t-153.5 18.5q-201 0 -305 -136q-106 -137 -121 -407q59 88 148 133q90 47 196 47q225 0 356 -137q129 -135 130 -371q0 -230 -136 -368q-135 -139 -362 -140 q-258 0 -395.5 198.5t-137.5 575.5zM381 479q0 -162 80 -254q82 -94 215 -94t215 94q80 92 80 254t-80 254q-82 94 -215 94t-215 -94q-80 -92 -80 -254z" />
<glyph unicode="7" horiz-adv-x="1302" d="M168 1323v170h960v-86l-542 -1407h-211l510 1323h-717z" />
<glyph unicode="8" horiz-adv-x="1302" d="M139 420q0 145 82 242q84 100 228 133q-127 31 -203 120q-72 86 -72 218q0 180 127 282q129 104 350 105q224 0 350 -105q127 -104 127 -282q0 -129 -73 -218q-76 -90 -201 -120q143 -33 227 -133q82 -96 82 -242q0 -217 -133 -334q-129 -115 -379 -115t-379 115 q-133 117 -133 334zM342 420q0 -135 82 -211q84 -78 227.5 -78t227.5 78q82 76 82 211q0 137 -82 213t-227.5 76t-227.5 -76t-82 -213zM375 1114q0 -115 74 -180q76 -66 202.5 -66t202.5 66q74 66 74 180.5t-74 179.5q-76 66 -203 66t-202 -66q-74 -65 -74 -180z" />
<glyph unicode="9" horiz-adv-x="1302" d="M129 1012q0 230 135 368q135 139 363 140q260 0 395 -199q137 -203 137 -576q0 -352 -168 -563t-450 -211q-82 0 -154 15q-88 18 -162 45v184q77 -37 154 -55q76 -18 153 -19q201 0 306 135q106 137 120 408q-57 -84 -147 -131t-197 -47q-225 0 -354 135 q-131 138 -131 371zM332 1012q0 -162 80 -254q82 -94 215 -94t215 94q80 92 80 254t-80 254q-82 94 -215 94t-215 -94q-80 -92 -80 -254z" />
<glyph unicode=":" horiz-adv-x="688" d="M240 0v254h211v-254h-211zM240 805v254h211v-254h-211z" />
<glyph unicode=";" horiz-adv-x="688" d="M158 -238l82 320v172h211v-172l-164 -320h-129zM240 805v254h211v-254h-211z" />
<glyph unicode="&#x3c;" horiz-adv-x="1714" d="M217 559v166l1282 465v-182l-1032 -367l1032 -365v-182z" />
<glyph unicode="=" horiz-adv-x="1714" d="M217 352v170h1282v-170h-1282zM217 762v168h1282v-168h-1282z" />
<glyph unicode="&#x3e;" horiz-adv-x="1714" d="M217 94v182l1030 365l-1030 367v182l1282 -465v-166z" />
<glyph unicode="?" horiz-adv-x="1085" d="M147 1219v188q95 58 191 86q92 27 199 27q186 0 294 -97q113 -100 113 -256q0 -78 -37 -145q-39 -70 -125 -154l-88 -86q-55 -55 -67 -73q-16 -25 -27 -52q-4 -16 -8 -51q-4 -41 -4 -82v-123h-191v154q0 98 29 166q29 66 117 151l90 89q55 49 82 100q27 49 26 96 q0 88 -65.5 143.5t-173.5 55.5q-76 0 -168 -35q-85 -30 -187 -102zM391 0v254h203v-254h-203z" />
<glyph unicode="@" horiz-adv-x="2048" d="M135 543q0 182 68 348q66 160 194 289q131 129 297 194q170 68 359 68q212 0 393 -86q180 -86 305 -248q76 -100 115 -213q39 -111 39 -238q0 -266 -158 -415q-162 -152 -440 -158v154q-61 -76 -137 -113t-181 -37q-174 0 -280.5 125t-106.5 323.5t109 325.5 q106 125 278 125q104 0 180 -37q78 -37 138 -114v131h143v-736q145 20 229 134q82 109 82 288q0 98 -32 201q-31 96 -95 174q-102 129 -254 201q-147 70 -325 69q-125 0 -236 -32q-119 -35 -209 -97q-156 -100 -245 -268q-88 -164 -89 -358q0 -162 58 -297q58 -138 166 -246 q100 -100 243 -158q138 -55 295 -55q129 0 254 43q115 39 228 125l90 -111q-125 -96 -273 -149q-145 -51 -299 -51q-184 0 -350 65q-162 63 -291 191q-127 123 -194 290q-68 167 -68 353zM762 536.5q0 -139.5 72 -223.5q70 -82 194 -82q123 0 193 82q72 84 71.5 223.5 t-71.5 223.5q-70 82 -195 82q-123 0 -192 -82q-72 -84 -72 -223.5z" />
<glyph unicode="A" horiz-adv-x="1400" d="M16 0l570 1493h229l569 -1493h-210l-136 383h-673l-136 -383h-213zM426 551h549l-275 743z" />
<glyph unicode="B" horiz-adv-x="1404" d="M201 0v1493h516q229 0 356 -96q125 -94 125 -273q0 -141 -63.5 -219t-188.5 -100q147 -31 232 -133q82 -100 82 -254q0 -201 -136 -309q-137 -109 -387 -109h-536zM403 166h324q162 0 242 67q78 66 78 207.5t-78 207t-242 65.5h-324v-547zM403 877h299q145 0 219 55 t74 170t-73.5 170t-219.5 55h-299v-450z" />
<glyph unicode="C" horiz-adv-x="1429" d="M115 745.5q0 356.5 194 567.5q193 207 535 207q139 0 252 -35q121 -37 223 -107v-213q-102 96 -217 142q-119 47 -246 47q-256 0 -391 -156q-137 -160 -137 -452.5t137 -452.5q135 -156 391 -156q127 0 246 47q115 45 217 142v-211q-113 -74 -225.5 -109t-249.5 -35 q-342 0 -535 207q-194 211 -194 567.5z" />
<glyph unicode="D" horiz-adv-x="1576" d="M201 0v1493h415q436 0 637 -180q203 -181 203 -565q0 -385 -205 -568q-201 -180 -635 -180h-415zM403 166h244q311 0 453 139q143 141 143 443q0 303 -143 440q-145 139 -453 139h-244v-1161z" />
<glyph unicode="E" horiz-adv-x="1292" d="M201 0v1493h944v-170h-742v-442h711v-170h-711v-541h760v-170h-962z" />
<glyph unicode="F" horiz-adv-x="1177" d="M201 0v1493h858v-170h-656v-440h592v-170h-592v-713h-202z" />
<glyph unicode="G" horiz-adv-x="1585" d="M115 745.5q0 360.5 198 569.5q197 205 547 205q152 0 277 -35q137 -39 243 -107v-215q-109 92 -237 144q-121 47 -266 47q-273 0 -412 -154q-137 -152 -137 -455t137 -454q138 -154 412 -154q108 0 190 19q88 18 152 57v401h-330v166h530v-641q-115 -82 -258 -125 q-141 -43 -301 -43q-350 0 -547 205q-198 209 -198 569.5z" />
<glyph unicode="H" horiz-adv-x="1538" d="M201 0v1493h202v-612h734v612h202v-1493h-202v711h-734v-711h-202z" />
<glyph unicode="I" horiz-adv-x="602" d="M201 0v1493h202v-1493h-202z" />
<glyph unicode="J" horiz-adv-x="602" d="M-106 -240h63q133 0 188.5 74t55.5 270v1389h202v-1389q0 -268 -102 -393q-100 -121 -330 -121h-77v170z" />
<glyph unicode="K" horiz-adv-x="1341" d="M201 0v1493h202v-631l670 631h260l-741 -696l794 -797h-266l-717 719v-719h-202z" />
<glyph unicode="L" horiz-adv-x="1140" d="M201 0v1493h202v-1323h727v-170h-929z" />
<glyph unicode="M" horiz-adv-x="1765" d="M201 0v1493h301l381 -1016l383 1016h301v-1493h-197v1311l-385 -1024h-203l-385 1024v-1311h-196z" />
<glyph unicode="N" horiz-adv-x="1531" d="M201 0v1493h272l662 -1249v1249h196v-1493h-272l-662 1249v-1249h-196z" />
<glyph unicode="O" horiz-adv-x="1611" d="M115 745q0 350 188 564q186 211 504 211q315 0 502 -211q188 -213 188 -563.5t-188 -563.5q-186 -211 -502 -211t-504 209q-188 211 -188 565zM328 745.5q0 -282.5 129 -446.5t350 -164q219 0 348 164t129 446.5t-129 446.5t-348 164q-221 0 -350 -164t-129 -446.5z" />
<glyph unicode="P" horiz-adv-x="1234" d="M201 0v1493h456q252 0 379 -113q129 -115 129 -334t-129 -333q-127 -113 -379 -113h-254v-600h-202zM403 766h254q141 0 217 74q78 74 78 207t-78 206q-76 74 -217 74h-254v-561z" />
<glyph unicode="Q" horiz-adv-x="1611" d="M115 745.5q0 350.5 188 563.5q186 211 504 211q315 0 502 -211q188 -213 188 -564q0 -262 -104 -446q-102 -182 -303 -272l266 -291h-244l-221 239q-16 0 -28.5 -2t-22.5 -2h-33q-317 0 -504 211q-188 213 -188 563.5zM328 745.5q0 -282.5 129 -446.5t350 -164 q219 0 348 164t129 446.5t-129 446.5t-348 164q-221 0 -350 -164t-129 -446.5z" />
<glyph unicode="R" horiz-adv-x="1421" d="M201 0v1493h456q256 0 381 -107q127 -109 127 -323q0 -139 -65 -234q-65 -92 -191 -129q63 -20 127 -94q59 -68 123 -198l205 -408h-217l-191 383q-74 150 -143 199q-71 49 -190 49h-220v-631h-202zM403 797h254q145 0 220 67q76 70 75 199q0 127 -75 197q-74 68 -220 67 h-254v-530z" />
<glyph unicode="S" horiz-adv-x="1298" d="M135 1094q0 199 139 313q137 113 385 113q106 0 213 -19q98 -16 224 -57v-197q-106 51 -217 82q-98 27 -197 27q-166 0 -254 -64q-90 -66 -90 -182q0 -100 59 -149q61 -51 226 -82l122 -25q225 -43 334 -152q106 -106 107 -290q0 -217 -146 -328q-147 -113 -426 -113 q-106 0 -225 25q-125 25 -248 70v208q133 -74 242 -104q121 -35 231 -35q172 0 266.5 67.5t94.5 194.5q0 111 -67.5 172.5t-221.5 92.5l-123 24q-225 45 -327 141q-101 95 -101 267z" />
<glyph unicode="T" horiz-adv-x="1249" d="M-6 1323v170h1263v-170h-530v-1323h-203v1323h-530z" />
<glyph unicode="U" horiz-adv-x="1497" d="M178 561v932h203v-907q0 -240 88 -346q86 -104 280.5 -104.5t280.5 104.5q88 106 88 346v907h203v-932q0 -289 -145 -440q-143 -150 -426 -150q-285 0 -428.5 149.5t-143.5 440.5z" />
<glyph unicode="V" horiz-adv-x="1400" d="M16 1493h211l473 -1257l474 1257h210l-569 -1493h-229z" />
<glyph unicode="W" horiz-adv-x="2023" d="M68 1493h204l314 -1262l313 1262h227l314 -1262l313 1262h205l-375 -1493h-254l-315 1296l-318 -1296h-254z" />
<glyph unicode="X" horiz-adv-x="1402" d="M61 0l533 797l-465 696h217l371 -555l373 555h217l-480 -717l512 -776h-217l-420 635l-423 -635h-218z" />
<glyph unicode="Y" horiz-adv-x="1249" d="M-4 1493h217l414 -614l411 614h217l-528 -782v-711h-203v711z" />
<glyph unicode="Z" horiz-adv-x="1402" d="M92 0v154l944 1169h-921v170h1173v-154l-944 -1169h967v-170h-1219z" />
<glyph unicode="[" horiz-adv-x="798" d="M176 -270v1826h424v-143h-240v-1540h240v-143h-424z" />
<glyph unicode="\" horiz-adv-x="688" d="M0 1493h170l520 -1683h-170z" />
<glyph unicode="]" horiz-adv-x="798" d="M199 -127h239v1540h-239v143h424v-1826h-424v143z" />
<glyph unicode="^" horiz-adv-x="1714" d="M217 936l543 557h196l543 -557h-201l-440 395l-440 -395h-201z" />
<glyph unicode="_" d="M-20 -340h1064v-143h-1064v143z" />
<glyph unicode="`" d="M170 1638h197l282 -374h-153z" />
<glyph unicode="a" horiz-adv-x="1253" d="M123 326q0 188 127 284.5t377 96.5h258v18q0 125 -84 197q-82 70 -234 69q-90 0 -186 -22q-88 -20 -176 -70v170q106 41 196 59q95 18 185 19q244 0 362 -125q121 -127 121 -383v-639h-184v170q-66 -102 -158 -150q-96 -49 -229 -49q-170 0 -272.5 96.5t-102.5 258.5z M307 338q0 -98 63.5 -155.5t176.5 -57.5q154 0 246 108t92 289v41h-183q-225 0 -309 -51q-86 -53 -86 -174z" />
<glyph unicode="b" horiz-adv-x="1298" d="M186 0v1556h185v-606q55 96 147 148q88 49 211 49q203 0 332 -162q127 -160 127 -426t-127 -426q-129 -162 -332 -162q-123 0 -211 49q-92 51 -147 148v-168h-185zM371 559q0 -201 84 -319q82 -115 229 -115t229 115q84 119 84 319q0 199 -84 318q-82 117 -229 116.5 t-229 -116.5q-84 -119 -84 -318z" />
<glyph unicode="c" horiz-adv-x="1124" d="M113 559q0 272 151.5 430t411.5 158q94 0 166 -17q78 -18 157 -53v-172q-72 41 -157 64q-84 23 -158 22q-180 0 -278.5 -114.5t-98.5 -317.5q0 -206 99 -319q98 -113 278 -113q74 0 158 23q86 23 157 63v-170q-70 -33 -159 -53q-82 -18 -176 -19q-252 0 -401.5 158 t-149.5 430z" />
<glyph unicode="d" horiz-adv-x="1298" d="M113 559q0 266 127 426q129 162 331 162q125 0 213 -49t146 -148v606h184v-1556h-184v168q-57 -98 -145.5 -147.5t-213.5 -49.5q-203 0 -331 162q-127 160 -127 426zM303 559q0 -201 84 -319q82 -115 229.5 -115t229.5 115q84 119 84 319q0 199 -84 318 q-84 117 -229.5 116.5t-229.5 -116.5q-84 -119 -84 -318z" />
<glyph unicode="e" horiz-adv-x="1259" d="M113 549q0 270 149 436q147 162 400 162q225 0 358 -146q131 -143 131 -395v-90h-846q12 -188 115 -289q104 -100 285 -100q100 0 206 27q94 25 197 77v-174q-94 -41 -202.5 -63.5t-211.5 -22.5q-268 0 -424 156q-157 158 -157 422zM311 659h656q-4 156 -84 242 q-84 90 -219 90q-152 0 -246 -88q-91 -84 -107 -244z" />
<glyph unicode="f" horiz-adv-x="720" d="M47 977v143h176v78q0 186 86 272t277 86h174v-153h-176q-98 0 -137 -39t-39 -145v-99h303v-143h-303v-977h-185v977h-176z" />
<glyph unicode="g" horiz-adv-x="1298" d="M113 573q0 258 127 416t331 158q125 0 213 -49q86 -47 146 -148v170h184v-981q0 -287 -127 -426t-389 -139q-102 0 -182 14q-94 16 -168 45v179q84 -45 159.5 -65.5t161.5 -20.5q182 0 271 94q90 96 90 286v91q-59 -100 -146 -148q-88 -49 -213 -49q-205 0 -331.5 157.5 t-126.5 415.5zM303 573.5q0 -200.5 82 -309.5q82 -111 231.5 -110.5t231.5 110.5q82 109 82 309.5t-82 309.5q-82 111 -231.5 110.5t-231.5 -110.5q-82 -109 -82 -309.5z" />
<glyph unicode="h" horiz-adv-x="1296" d="M186 0v1556h185v-610q63 100 155 152q88 49 207 49q193 0 291 -119q100 -123 100 -352v-676h-184v670q0 158 -61.5 237.5t-186.5 79.5q-150 0 -235.5 -94t-85.5 -260v-633h-185z" />
<glyph unicode="i" horiz-adv-x="567" d="M193 0v1120h184v-1120h-184zM193 1323v233h184v-233h-184z" />
<glyph unicode="j" horiz-adv-x="567" d="M-37 -270h49q106 0 143.5 49t37.5 201v1140h184v-1140q0 -215 -82 -310q-84 -96 -262 -96h-70v156zM193 1323v233h184v-233h-184z" />
<glyph unicode="k" horiz-adv-x="1185" d="M186 0v1556h185v-919l549 483h235l-594 -524l619 -596h-240l-569 547v-547h-185z" />
<glyph unicode="l" horiz-adv-x="567" d="M193 0v1556h184v-1556h-184z" />
<glyph unicode="m" horiz-adv-x="1994" d="M186 0v1120h185v-174q63 102 151 152q89 49 209 49q121 0 207 -61.5t127 -180.5q68 121 166 182q96 59 225 60q175 0 270 -123q94 -121 95 -348v-676h-185v670q0 164 -57 239q-59 78 -174 78q-143 0 -225 -94q-84 -96 -84 -260v-633h-185v670q0 164 -57 239 q-59 78 -176 78q-139 0 -223 -96t-84 -258v-633h-185z" />
<glyph unicode="n" horiz-adv-x="1296" d="M186 0v1120h185v-174q63 100 155 152q88 49 207 49q193 0 291 -119q100 -123 100 -352v-676h-184v670q0 158 -61.5 237.5t-186.5 79.5q-150 0 -235.5 -94t-85.5 -260v-633h-185z" />
<glyph unicode="o" horiz-adv-x="1251" d="M113 559q0 272 137 432q135 156 377 156q240 0 377 -155.5t137 -432t-137.5 -432.5t-376.5 -156q-242 0 -377 156q-137 160 -137 432zM307 559q0 -201 86 -317q84 -115 234 -115q147 0 233 116.5t86 315.5t-86 315.5t-233.5 116.5t-233.5 -116.5t-86 -315.5z" />
<glyph unicode="p" horiz-adv-x="1298" d="M186 -426v1546h185v-170q55 96 147 148q88 49 211 49q203 0 332 -162q127 -160 127 -426t-127 -426q-129 -162 -332 -162q-123 0 -211 49q-92 51 -147 148v-594h-185zM371 559q0 -201 84 -319q82 -115 229 -115t229 115q84 119 84 319q0 199 -84 318q-82 117 -229 116.5 t-229 -116.5q-84 -119 -84 -318z" />
<glyph unicode="q" horiz-adv-x="1298" d="M113 559q0 266 127 426q129 162 331 162q125 0 213 -49t146 -148v170h184v-1546h-184v594q-57 -98 -145.5 -147.5t-213.5 -49.5q-203 0 -331 162q-127 160 -127 426zM303 559q0 -201 84 -319q82 -115 229.5 -115t229.5 115q84 119 84 319q0 199 -84 318 q-84 117 -229.5 116.5t-229.5 -116.5q-84 -119 -84 -318z" />
<glyph unicode="r" horiz-adv-x="841" d="M186 0v1120h185v-174q59 102 151 151.5t226 49.5q29 0 43 -2q41 -6 51 -8v-189q-29 16 -68 27q-33 8 -80 8q-156 0 -239.5 -102.5t-83.5 -290.5v-590h-185z" />
<glyph unicode="s" horiz-adv-x="1064" d="M111 41v190q100 -51 200 -79q94 -27 197 -27q127 0 201 45q70 43 69 125q0 74 -51 115t-221 77l-64 15q-170 37 -247 110q-76 74 -76 205q0 156 112 244q111 86 318 86q109 0 192 -14q94 -16 166 -46v-174q-68 35 -162 60q-80 20 -174 20q-139 0 -206.5 -43t-67.5 -125 q0 -63 49 -100q47 -35 197 -70l63 -14q197 -43 279 -119t82 -213q0 -156 -123 -248q-121 -90 -340 -90q-98 0 -187 17q-91 16 -206 53z" />
<glyph unicode="t" horiz-adv-x="802" d="M55 977v143h135v318h185v-318h379v-143h-379v-608q0 -135 37 -176q37 -39 153 -39h189v-154h-189q-215 0 -295 80t-80 289v608h-135z" />
<glyph unicode="u" horiz-adv-x="1296" d="M174 442v678h184v-671q0 -158 61.5 -238t186.5 -80q150 0 236 94t86 260v635h184v-1120h-184v172q-70 -104 -156 -152q-88 -49 -205 -49q-193 0 -293 119t-100 352z" />
<glyph unicode="v" horiz-adv-x="1210" d="M61 1120h195l350 -940l350 940h195l-420 -1120h-250z" />
<glyph unicode="w" horiz-adv-x="1673" d="M86 1120h184l230 -874l229 874h217l230 -874l229 874h184l-293 -1120h-217l-241 918l-242 -918h-217z" />
<glyph unicode="x" horiz-adv-x="1210" d="M59 0l435 586l-398 534h217l297 -399l297 399h217l-405 -545l426 -575h-217l-326 440l-326 -440h-217z" />
<glyph unicode="y" horiz-adv-x="1210" d="M61 1120h195l350 -876l350 876h195l-492 -1224q-76 -197 -151 -261q-74 -61 -199 -61h-147v154h108q74 0 117 36.5t94 169.5l33 84z" />
<glyph unicode="z" horiz-adv-x="1073" d="M88 0v168l692 805h-667v147h874v-168l-692 -805h692v-147h-899z" />
<glyph unicode="{" horiz-adv-x="1302" d="M256 541v143h61q145 0 197 57q53 59 53 207v240q0 223 84 295q86 74 334 73h62v-143h-68q-139 0 -184 -45q-43 -43 -43 -184v-248q0 -158 -45 -227q-47 -72 -156 -97q109 -27 156 -98q45 -70 45 -227v-248q0 -141 43 -184q45 -45 184 -45h68v-144h-62q-248 0 -334 74 q-84 72 -84 295v239q0 151 -55 209q-55 57 -195 58h-61z" />
<glyph unicode="|" horiz-adv-x="688" d="M260 -483v2048h170v-2048h-170z" />
<glyph unicode="}" horiz-adv-x="1302" d="M256 -190h70q139 0 182 43t43 186v248q0 158 45 227q47 72 156 98q-109 25 -156 97q-45 70 -45 227v248q0 143 -43 186t-182 43h-70v143h63q249 0 332 -73q84 -74 84 -295v-240q0 -152 53 -207q55 -57 197 -57h62v-143h-62q-141 0 -197 -58q-53 -55 -53 -209v-239 q0 -221 -84 -295q-83 -74 -332 -74h-63v144z" />
<glyph unicode="~" horiz-adv-x="1714" d="M217 467v178q100 78 195 113q92 35 186 35q113 0 256 -60q6 -2 10 -3t6 -3q4 0 9.5 -3t13.5 -5q154 -61 248 -62q84 0 170 37q74 31 188 123v-178q-100 -78 -194 -113q-92 -35 -187 -34q-106 0 -256 59q-8 2 -16 6q-2 0 -10.5 3t-12.5 5q-154 61 -248 62q-90 0 -174 -39 q-92 -43 -184 -121z" />
<glyph unicode="&#xa1;" horiz-adv-x="819" d="M309 0v655l21 357h162l20 -357v-655h-203zM309 1239v254h203v-254h-203z" />
<glyph unicode="&#xa2;" horiz-adv-x="1302" d="M172 559q0 256 133 412q131 152 373 174v287h102v-287q63 -2 142 -21q68 -14 137 -47v-172q-74 40 -141 62q-68 20 -138 24v-864q74 6 138 27q82 27 141 59v-170q-53 -25 -133 -47q-68 -18 -146 -25v-284h-102v288q-242 23 -373 175q-133 155 -133 409zM367 559 q0 -186 82 -299q80 -111 229 -129v856q-147 -18 -229 -131t-82 -297z" />
<glyph unicode="&#xa3;" horiz-adv-x="1302" d="M129 0v170h236v465h-199v143h199v238q0 262 106.5 383t339.5 121q66 0 137 -15q55 -10 154 -45v-182q-78 41 -144 61q-63 20 -129 21q-147 0 -206 -78q-57 -76 -58 -289v-215h391v-143h-391v-465h557v-170h-993z" />
<glyph unicode="&#xa4;" horiz-adv-x="1302" d="M94 197l207 206q-37 59 -55 121q-18 58 -19 117q0 65 19 123q16 51 57 113l-207 206l115 115l207 -207q53 39 112 58q58 18 123 18q59 0 119 -18q55 -18 119 -56l207 209l114 -115l-206 -206q35 -57 55 -119q18 -57 18 -120.5t-18 -121.5q-16 -51 -60 -114l209 -207 l-114 -113l-207 207q-61 -41 -117 -60q-59 -18 -119 -18q-57 0 -118 18q-57 16 -121 56l-207 -207zM383 643q0 -117 78 -192q82 -78 192 -78q115 0 191 78q78 82 78 192.5t-78 188t-191 77.5q-109 0 -190 -78q-80 -77 -80 -188z" />
<glyph unicode="&#xa5;" horiz-adv-x="1302" d="M82 1493h190l379 -700l377 700h191l-318 -586h264v-123h-331l-84 -155v-51h415v-123h-413v-455h-201v455h-416v123h416v51l-84 155h-332v123h264z" />
<glyph unicode="&#xa6;" horiz-adv-x="688" d="M260 -350v758h170v-758h-170zM260 674v758h170v-758h-170z" />
<glyph unicode="&#xa7;" d="M92 723q0 90 47 162q47 74 137 121q-55 41 -88 100q-31 55 -30 125q0 129 100 209q102 80 266 80q78 0 150 -15q74 -14 155 -43v-164q-76 37 -155 58q-78 20 -127 20q-94 0 -152 -41q-53 -39 -53 -110q0 -90 207 -205q12 -6 18 -10t10.5 -7.5t10.5 -5.5 q212 -120 276 -196q66 -78 66 -178q0 -90 -45 -160t-140 -123q63 -55 91 -107q29 -57 28 -118q0 -141 -102.5 -225.5t-274.5 -84.5q-78 0 -149 15q-77 15 -166 43v164q78 -37 162 -58q82 -20 131 -20q102 0 158 43q57 45 57 117q0 102 -221 225l-25 14q-213 119 -278 197 q-64 76 -64 178zM254 754q0 -74 70 -142q71 -68 319 -202q66 47 94 90q31 46 31 92q0 76 -72 143q-72 70 -317 201q-66 -47 -94 -90q-31 -46 -31 -92z" />
<glyph unicode="&#xa8;" d="M215 1350v202h203v-202h-203zM606 1350v202h203v-202h-203z" />
<glyph unicode="&#xa9;" horiz-adv-x="2048" d="M283 741q0 152 55 285t162 240q109 109 241 164t283 55t283 -55q133 -55 241 -164q106 -106 161.5 -239.5t55.5 -285.5q0 -154 -55 -282q-59 -135 -162 -240q-109 -109 -241 -164t-283 -55t-283 55q-133 55 -241 164q-102 104 -162 240q-55 128 -55 282zM383 741.5 q0 -135.5 47 -243.5q49 -113 143 -207q96 -96 207 -141q117 -47 244 -48q129 0 246 48q111 45 207 141q92 94 139 207q47 117 47 243q0 129 -47 246q-47 115 -139 207q-96 96 -207 141q-117 47 -246 47q-127 0 -244 -47q-111 -45 -207 -141q-94 -94 -143 -209 q-47 -108 -47 -243.5zM582 741q0 211 125 330q127 121 342 121q78 0 141 -14q80 -18 133 -41v-129q-63 33 -131 49q-70 16 -131 16q-147 0 -231.5 -88t-84.5 -244q0 -160 86 -245q88 -88 240 -88q59 0 125 16q63 16 127 49v-127q-68 -28 -135 -43q-63 -14 -139 -14 q-217 0 -342 122.5t-125 329.5z" />
<glyph unicode="&#xaa;" horiz-adv-x="964" d="M115 946q0 137 96 205q95 68 283 68h182v4q0 92 -57.5 137t-176.5 45q-72 0 -131 -16q-72 -20 -135 -52v127q63 25 146 41q70 14 141 15q184 0 272 -88q90 -90 90 -267v-448h-149v112q-41 -61 -117 -98q-68 -33 -164 -33q-129 0 -204.5 67.5t-75.5 180.5zM139 469v123 h688v-123h-688zM262 958q0 -61 49 -102q47 -39 131 -39q102 0 168 72t66 186v29h-127q-160 0 -223.5 -33t-63.5 -113z" />
<glyph unicode="&#xab;" horiz-adv-x="1251" d="M158 559v82l469 418v-191l-301 -268l301 -268v-191zM592 559v82l469 418v-191l-301 -268l301 -268v-191z" />
<glyph unicode="&#xac;" horiz-adv-x="1714" d="M217 692v170h1282v-575h-168v405h-1114z" />
<glyph unicode="&#xad;" horiz-adv-x="737" d="M100 479v164h539v-164h-539z" />
<glyph unicode="&#xae;" horiz-adv-x="2048" d="M283 741q0 152 55 285t162 240q109 109 241 164t283 55t283 -55q133 -55 241 -164q106 -106 161.5 -239.5t55.5 -285.5q0 -154 -55 -282q-59 -135 -162 -240q-109 -109 -241 -164t-283 -55t-283 55q-133 55 -241 164q-102 104 -162 240q-55 128 -55 282zM383 741.5 q0 -135.5 47 -243.5q49 -113 143 -207q96 -96 207 -141q117 -47 244 -48q129 0 246 48q111 45 207 141q92 94 139 207q47 117 47 243q0 129 -47 246q-47 115 -139 207q-96 96 -207 141q-117 47 -246 47q-127 0 -244 -47q-111 -45 -207 -141q-94 -94 -143 -209 q-47 -108 -47 -243.5zM719 338v836h285q176 0 264 -60q86 -57 86 -180q0 -84 -54 -141q-52 -55 -147 -74q27 -10 57 -47q41 -49 80 -111l137 -223h-172l-129 209q-59 96 -96 121q-39 27 -90 26h-66v-356h-155zM874 795h123q111 0 154 30.5t43 106.5q0 78 -43 108.5 t-154 30.5h-123v-276z" />
<glyph unicode="&#xaf;" d="M213 1378v148h598v-148h-598z" />
<glyph unicode="&#xb0;" d="M195 1200q0 135 92 227.5t225 92.5q65 0 123 -25q61 -27 102 -70q51 -51 70 -102q23 -61 22 -123q0 -131 -92 -223t-227 -92t-225 90t-90 225zM322 1200q0 -78 55 -133t135 -55t135 55t55 133q0 80 -55 135.5t-135 55.5t-135 -55.5t-55 -135.5z" />
<glyph unicode="&#xb1;" horiz-adv-x="1714" d="M217 0v170h1282v-170h-1282zM217 727v170h557v387h168v-387h557v-170h-557v-387h-168v387h-557z" />
<glyph unicode="&#xb2;" horiz-adv-x="819" d="M94 668v110l96 86q344 304 345 400q0 68 -52 106q-53 41 -137 41q-51 0 -113 -18q-70 -20 -133 -52v123q63 23 144 41q63 14 123 15q143 0 231 -65.5t88 -174.5q0 -141 -332 -424l-86 -74h424v-114h-598z" />
<glyph unicode="&#xb3;" horiz-adv-x="819" d="M98 694v121q55 -29 111 -41q57 -12 127 -12q111 0 170 39t59 110q0 76 -55 113t-164 37h-86v108h94q92 0 141.5 31t49.5 92q0 57 -49.5 88t-145.5 31q-45 0 -92 -8q-27 -4 -131 -33v115q66 16 137 26q57 8 119 9q141 0 229 -60q84 -57 84 -157q0 -70 -45 -117t-127 -66 q92 -18 142 -73q51 -57 51 -136q0 -123 -94.5 -190.5t-272.5 -67.5q-51 0 -119 11q-63 10 -133 30z" />
<glyph unicode="&#xb4;" d="M371 1262l280 376h199l-326 -376h-153z" />
<glyph unicode="&#xb5;" horiz-adv-x="1302" d="M174 -426v1546h184v-696q0 -145 68 -219t205 -74q150 0 223 84q74 83 74 252v653h184v-862q0 -61 18 -88q18 -29 54 -29q9 0 24 6q2 0 18.5 6.5l26.5 10.5v-148q-43 -23 -77 -34q-31 -10 -72 -11q-72 0 -111 39q-41 41 -55 119q-49 -78 -123 -119q-72 -39 -170 -39 q-104 0 -174 39t-113 117v-553h-184z" />
<glyph unicode="&#xb6;" horiz-adv-x="1302" d="M158 1071q0 186 131 305q129 117 344 117h448v-1690h-141v1567h-190v-1567h-142v846q-217 18 -332 127q-118 113 -118 295z" />
<glyph unicode="&#xb7;" horiz-adv-x="649" d="M219 584v254h211v-254h-211z" />
<glyph unicode="&#xb8;" d="M291 -240q33 -18 71 -24q49 -8 84 -8q57 0 88 24.5t31 69.5q0 29 -22 74q-27 51 -66 104h119q51 -57 82 -115q27 -51 27 -100q0 -90 -59.5 -135t-178.5 -45q-47 0 -90 6t-86 18v131z" />
<glyph unicode="&#xb9;" horiz-adv-x="819" d="M137 1348v116l230 39h137v-725h205v-110h-553v110h204v611z" />
<glyph unicode="&#xba;" horiz-adv-x="964" d="M96 1108q0 190 104.5 301t282.5 111t283 -111q102 -109 102 -301.5t-102 -301t-283 -108.5q-178 0 -282.5 111t-104.5 299zM139 469v123h688v-123h-688zM252 1108q0 -135 63 -213q66 -80 168 -80q106 0 168 80t62 213q0 137 -61.5 217t-168.5 80q-102 0 -168 -80 q-63 -78 -63 -217z" />
<glyph unicode="&#xbb;" horiz-adv-x="1251" d="M193 141v191l301 268l-301 268v191l469 -418v-82zM627 141v191l301 268l-301 268v191l469 -418v-82z" />
<glyph unicode="&#xbc;" horiz-adv-x="1984" d="M137 1348v116l230 39h137v-725h205v-110h-553v110h204v611zM446 -29l932 1549h160l-932 -1549h-160zM1226 186v121l392 528h166v-540h135v-109h-135v-186h-144v186h-414zM1331 295h309v419z" />
<glyph unicode="&#xbd;" horiz-adv-x="1984" d="M137 1348v116l230 39h137v-725h205v-110h-553v110h204v611zM446 -29l932 1549h160l-932 -1549h-160zM1257 0v110l96 86q344 304 345 400q0 68 -52 106q-53 41 -137 41q-51 0 -113 -18q-70 -20 -133 -52v123q63 23 144 41q63 14 123 15q143 0 231 -65.5t88 -174.5 q0 -141 -332 -424l-86 -74h424v-114h-598z" />
<glyph unicode="&#xbe;" horiz-adv-x="1984" d="M98 694v121q55 -29 111 -41q57 -12 127 -12q111 0 170 39t59 110q0 76 -55 113t-164 37h-86v108h94q92 0 141.5 31t49.5 92q0 57 -49.5 88t-145.5 31q-45 0 -92 -8q-27 -4 -131 -33v115q66 16 137 26q57 8 119 9q141 0 229 -60q84 -57 84 -157q0 -70 -45 -117t-127 -66 q92 -18 142 -73q51 -57 51 -136q0 -123 -94.5 -190.5t-272.5 -67.5q-51 0 -119 11q-63 10 -133 30zM446 -29l932 1549h160l-932 -1549h-160zM1226 186v121l392 528h166v-540h135v-109h-135v-186h-144v186h-414zM1331 295h309v419z" />
<glyph unicode="&#xbf;" horiz-adv-x="1085" d="M143 324q0 78 37 145q39 70 125 154l88 86q49 46 68 73q16 25 26 52q8 27 11 51q2 20 2 84v123h190v-156q0 -98 -28 -166q-29 -66 -117 -152l-90 -88q-57 -51 -84 -100q-25 -45 -25 -96q0 -88 66 -144q63 -55 174 -55q76 0 168 35q90 35 186 102v-188q-88 -55 -190 -84 q-98 -29 -199 -29q-186 0 -295 97q-113 100 -113 256zM494 1239v254h202v-254h-202z" />
<glyph unicode="&#xc0;" horiz-adv-x="1400" d="M16 0l570 1493h229l569 -1493h-210l-136 383h-673l-136 -383h-213zM426 551h549l-275 743zM456 1899h187l196 -264h-153z" />
<glyph unicode="&#xc1;" horiz-adv-x="1400" d="M16 0l570 1493h229l569 -1493h-210l-136 383h-673l-136 -383h-213zM426 551h549l-275 743zM559 1635l196 264h185l-228 -264h-153z" />
<glyph unicode="&#xc2;" horiz-adv-x="1400" d="M16 0l570 1493h229l569 -1493h-210l-136 383h-673l-136 -383h-213zM426 551h549l-275 743zM395 1635l211 266h188l211 -266h-139l-166 178l-166 -178h-139z" />
<glyph unicode="&#xc3;" horiz-adv-x="1400" d="M16 0l570 1493h229l569 -1493h-210l-136 383h-673l-136 -383h-213zM426 551h549l-275 743zM370 1667q0 102 51 160q53 59 138 59q41 0 67 -8q35 -10 78 -35l57 -30q23 -12 39 -19q18 -6 33 -6q31 0 51 25q20 23 21 67v6h125q-4 -104 -54 -159q-53 -59 -135 -60 q-37 0 -63 9q-37 10 -82 34l-57 33q-8 6 -41 19q-16 6 -27 6q-35 0 -55 -25q-20 -23 -21 -70v-6h-125z" />
<glyph unicode="&#xc4;" horiz-adv-x="1400" d="M16 0l570 1493h229l569 -1493h-210l-136 383h-673l-136 -383h-213zM426 551h549l-275 743zM403 1667v203h203v-203h-203zM794 1667v203h203v-203h-203z" />
<glyph unicode="&#xc5;" horiz-adv-x="1400" d="M16 0l533 1397q-61 40 -92 98q-31 57 -31 131q0 115 80 195t194.5 80t194.5 -80t80 -195q0 -71 -31 -129q-33 -61 -92 -100l532 -1397h-210l-136 383h-673l-136 -383h-213zM428 551h545l-273 743zM549 1626q0 -61 45 -106t106.5 -45t106.5 45t45 106.5t-45 106.5t-107 45 q-66 0 -108.5 -43t-42.5 -109z" />
<glyph unicode="&#xc6;" horiz-adv-x="1994" d="M8 0l625 1493h1212v-170h-741v-442h711v-170h-711v-541h760v-170h-963v383h-528l-160 -383h-205zM442 551h459v784h-129z" />
<glyph unicode="&#xc7;" horiz-adv-x="1429" d="M115 745.5q0 356.5 194 567.5q193 207 535 207q139 0 252 -35q121 -37 223 -107v-213q-102 96 -217 142q-119 47 -246 47q-256 0 -391 -156q-137 -160 -137 -452.5t137 -452.5q135 -156 391 -156q127 0 246 47q115 45 217 142v-211q-113 -74 -225.5 -109t-249.5 -35 q-342 0 -535 207q-194 211 -194 567.5zM592 -240q33 -18 71 -24q49 -8 84 -8q57 0 88 24.5t31 69.5q0 29 -22 74q-27 51 -66 104h119q51 -57 82 -115q27 -51 27 -100q0 -90 -59.5 -135t-178.5 -45q-47 0 -90 6t-86 18v131z" />
<glyph unicode="&#xc8;" horiz-adv-x="1292" d="M201 0v1493h944v-170h-742v-442h711v-170h-711v-541h760v-170h-962zM426 1899h187l196 -264h-153z" />
<glyph unicode="&#xc9;" horiz-adv-x="1292" d="M201 0v1493h944v-170h-742v-442h711v-170h-711v-541h760v-170h-962zM529 1635l196 264h185l-228 -264h-153z" />
<glyph unicode="&#xca;" horiz-adv-x="1292" d="M201 0v1493h944v-170h-742v-442h711v-170h-711v-541h760v-170h-962zM365 1635l211 266h188l211 -266h-139l-166 178l-166 -178h-139z" />
<glyph unicode="&#xcb;" horiz-adv-x="1292" d="M201 0v1493h944v-170h-742v-442h711v-170h-711v-541h760v-170h-962zM373 1667v203h203v-203h-203zM764 1667v203h203v-203h-203z" />
<glyph unicode="&#xcc;" horiz-adv-x="602" d="M201 0v1493h202v-1493h-202zM59 1899h187l196 -264h-153z" />
<glyph unicode="&#xcd;" horiz-adv-x="602" d="M201 0v1493h202v-1493h-202zM162 1635l196 264h185l-228 -264h-153z" />
<glyph unicode="&#xce;" horiz-adv-x="602" d="M201 0v1493h202v-1493h-202zM-2 1635l211 266h188l211 -266h-139l-166 178l-166 -178h-139z" />
<glyph unicode="&#xcf;" horiz-adv-x="602" d="M201 0v1493h202v-1493h-202zM6 1667v203h203v-203h-203zM397 1667v203h203v-203h-203z" />
<glyph unicode="&#xd0;" horiz-adv-x="1585" d="M10 700v144h201v649h416q436 0 637 -180q203 -181 202 -565q0 -385 -204 -568q-201 -180 -635 -180h-416v700h-201zM414 166h243q311 0 453 139q143 141 143 443q0 303 -143 440q-145 139 -453 139h-243v-483h336v-144h-336v-534z" />
<glyph unicode="&#xd1;" horiz-adv-x="1531" d="M201 0v1493h272l662 -1249v1249h196v-1493h-272l-662 1249v-1249h-196zM436 1667q0 102 51 160q53 59 138 59q41 0 67 -8q35 -10 78 -35l57 -30q23 -12 39 -19q18 -6 33 -6q31 0 51 25q20 23 21 67v6h125q-4 -104 -54 -159q-53 -59 -135 -60q-37 0 -63 9q-37 10 -82 34 l-57 33q-8 6 -41 19q-16 6 -27 6q-35 0 -55 -25q-20 -23 -21 -70v-6h-125z" />
<glyph unicode="&#xd2;" horiz-adv-x="1611" d="M115 745q0 350 188 564q186 211 504 211q315 0 502 -211q188 -213 188 -563.5t-188 -563.5q-186 -211 -502 -211t-504 209q-188 211 -188 565zM328 745.5q0 -282.5 129 -446.5t350 -164q219 0 348 164t129 446.5t-129 446.5t-348 164q-221 0 -350 -164t-129 -446.5z M563 1899h187l196 -264h-153z" />
<glyph unicode="&#xd3;" horiz-adv-x="1611" d="M115 745q0 350 188 564q186 211 504 211q315 0 502 -211q188 -213 188 -563.5t-188 -563.5q-186 -211 -502 -211t-504 209q-188 211 -188 565zM328 745.5q0 -282.5 129 -446.5t350 -164q219 0 348 164t129 446.5t-129 446.5t-348 164q-221 0 -350 -164t-129 -446.5z M666 1635l196 264h185l-228 -264h-153z" />
<glyph unicode="&#xd4;" horiz-adv-x="1611" d="M115 745q0 350 188 564q186 211 504 211q315 0 502 -211q188 -213 188 -563.5t-188 -563.5q-186 -211 -502 -211t-504 209q-188 211 -188 565zM328 745.5q0 -282.5 129 -446.5t350 -164q219 0 348 164t129 446.5t-129 446.5t-348 164q-221 0 -350 -164t-129 -446.5z M502 1635l211 266h188l211 -266h-139l-166 178l-166 -178h-139z" />
<glyph unicode="&#xd5;" horiz-adv-x="1611" d="M115 745q0 350 188 564q186 211 504 211q315 0 502 -211q188 -213 188 -563.5t-188 -563.5q-186 -211 -502 -211t-504 209q-188 211 -188 565zM328 745.5q0 -282.5 129 -446.5t350 -164q219 0 348 164t129 446.5t-129 446.5t-348 164q-221 0 -350 -164t-129 -446.5z M477 1667q0 102 51 160q53 59 138 59q41 0 67 -8q35 -10 78 -35l57 -30q23 -12 39 -19q18 -6 33 -6q31 0 51 25q20 23 21 67v6h125q-4 -104 -54 -159q-53 -59 -135 -60q-37 0 -63 9q-37 10 -82 34l-57 33q-8 6 -41 19q-16 6 -27 6q-35 0 -55 -25q-20 -23 -21 -70v-6h-125z " />
<glyph unicode="&#xd6;" horiz-adv-x="1611" d="M115 745q0 350 188 564q186 211 504 211q315 0 502 -211q188 -213 188 -563.5t-188 -563.5q-186 -211 -502 -211t-504 209q-188 211 -188 565zM328 745.5q0 -282.5 129 -446.5t350 -164q219 0 348 164t129 446.5t-129 446.5t-348 164q-221 0 -350 -164t-129 -446.5z M510 1667v203h203v-203h-203zM901 1667v203h203v-203h-203z" />
<glyph unicode="&#xd7;" horiz-adv-x="1714" d="M281 184l456 457l-456 459l118 121l459 -459l459 459l119 -121l-457 -459l457 -457l-119 -121l-459 459l-459 -459z" />
<glyph unicode="&#xd8;" horiz-adv-x="1611" d="M102 18l170 201q-80 106 -118 234q-39 129 -39 292q0 350 188 564q186 211 504 211q131 0 240 -39q117 -41 198 -113l162 191l102 -89l-170 -198q78 -104 117 -236q41 -135 41 -291q0 -350 -188 -563q-186 -211 -502 -211q-127 0 -238 37q-106 35 -202 113l-162 -191z M328 745q0 -100 20 -206q18 -96 58 -162l718 848q-61 65 -141 98q-78 33 -176 33q-221 0 -350 -164t-129 -447zM489 266q61 -65 142 -98q78 -33 176 -33q219 0 348 164t129 446q0 100 -20 203q-18 96 -58 164z" />
<glyph unicode="&#xd9;" horiz-adv-x="1497" d="M178 561v932h203v-907q0 -240 88 -346q86 -104 280.5 -104.5t280.5 104.5q88 106 88 346v907h203v-932q0 -289 -145 -440q-143 -150 -426 -150q-285 0 -428.5 149.5t-143.5 440.5zM506 1899h187l196 -264h-153z" />
<glyph unicode="&#xda;" horiz-adv-x="1497" d="M178 561v932h203v-907q0 -240 88 -346q86 -104 280.5 -104.5t280.5 104.5q88 106 88 346v907h203v-932q0 -289 -145 -440q-143 -150 -426 -150q-285 0 -428.5 149.5t-143.5 440.5zM609 1635l196 264h185l-228 -264h-153z" />
<glyph unicode="&#xdb;" horiz-adv-x="1497" d="M178 561v932h203v-907q0 -240 88 -346q86 -104 280.5 -104.5t280.5 104.5q88 106 88 346v907h203v-932q0 -289 -145 -440q-143 -150 -426 -150q-285 0 -428.5 149.5t-143.5 440.5zM445 1635l211 266h188l211 -266h-139l-166 178l-166 -178h-139z" />
<glyph unicode="&#xdc;" horiz-adv-x="1497" d="M178 561v932h203v-907q0 -240 88 -346q86 -104 280.5 -104.5t280.5 104.5q88 106 88 346v907h203v-932q0 -289 -145 -440q-143 -150 -426 -150q-285 0 -428.5 149.5t-143.5 440.5zM453 1667v203h203v-203h-203zM844 1667v203h203v-203h-203z" />
<glyph unicode="&#xdd;" horiz-adv-x="1249" d="M-4 1493h217l414 -614l411 614h217l-528 -782v-711h-203v711zM486 1635l196 264h185l-228 -264h-153z" />
<glyph unicode="&#xde;" horiz-adv-x="1236" d="M201 0v1493h202v-264h254q252 0 379 -113q129 -113 129 -332t-129 -333q-127 -113 -379 -113h-254v-338h-202zM403 504h254q141 0 217 74q78 74 78 207t-78 206q-74 72 -217 72h-254v-559z" />
<glyph unicode="&#xdf;" horiz-adv-x="1288" d="M186 0v1137q0 199 119 309q120 111 338 110q207 0 318 -116q109 -115 112 -340q-156 -10 -235 -66q-84 -59 -84 -153q0 -47 28 -88q25 -35 95 -82l57 -37q168 -109 215 -176.5t47 -171.5q0 -170 -112.5 -262.5t-323.5 -92.5q-63 0 -131 12.5t-142 36.5v164 q76 -29 150 -45q66 -14 135 -14q113 0 176 47q59 45 60 139q0 63 -29 105q-31 45 -131 104l-92 55q-96 59 -139.5 127t-43.5 158q0 125 84 213t234 115q-9 104 -73.5 159.5t-178.5 55.5q-131 0 -199 -70q-68 -72 -67 -200v-1133h-187z" />
<glyph unicode="&#xe0;" horiz-adv-x="1253" d="M123 326q0 188 127 284.5t377 96.5h258v18q0 125 -84 197q-82 70 -234 69q-90 0 -186 -22q-88 -20 -176 -70v170q106 41 196 59q95 18 185 19q244 0 362 -125q121 -127 121 -383v-639h-184v170q-66 -102 -158 -150q-96 -49 -229 -49q-170 0 -272.5 96.5t-102.5 258.5z M307 338q0 -98 63.5 -155.5t176.5 -57.5q154 0 246 108t92 289v41h-183q-225 0 -309 -51q-86 -53 -86 -174zM252 1638h197l282 -374h-153z" />
<glyph unicode="&#xe1;" horiz-adv-x="1253" d="M123 326q0 188 127 284.5t377 96.5h258v18q0 125 -84 197q-82 70 -234 69q-90 0 -186 -22q-88 -20 -176 -70v170q106 41 196 59q95 18 185 19q244 0 362 -125q121 -127 121 -383v-639h-184v170q-66 -102 -158 -150q-96 -49 -229 -49q-170 0 -272.5 96.5t-102.5 258.5z M307 338q0 -98 63.5 -155.5t176.5 -57.5q154 0 246 108t92 289v41h-183q-225 0 -309 -51q-86 -53 -86 -174zM453 1262l280 376h199l-326 -376h-153z" />
<glyph unicode="&#xe2;" horiz-adv-x="1253" d="M123 326q0 188 127 284.5t377 96.5h258v18q0 125 -84 197q-82 70 -234 69q-90 0 -186 -22q-88 -20 -176 -70v170q106 41 196 59q95 18 185 19q244 0 362 -125q121 -127 121 -383v-639h-184v170q-66 -102 -158 -150q-96 -49 -229 -49q-170 0 -272.5 96.5t-102.5 258.5z M307 338q0 -98 63.5 -155.5t176.5 -57.5q154 0 246 108t92 289v41h-183q-225 0 -309 -51q-86 -53 -86 -174zM275 1262l245 376h148l245 -376h-139l-180 245l-180 -245h-139z" />
<glyph unicode="&#xe3;" horiz-adv-x="1253" d="M123 326q0 188 127 284.5t377 96.5h258v18q0 125 -84 197q-82 70 -234 69q-90 0 -186 -22q-88 -20 -176 -70v170q106 41 196 59q95 18 185 19q244 0 362 -125q121 -127 121 -383v-639h-184v170q-66 -102 -158 -150q-96 -49 -229 -49q-170 0 -272.5 96.5t-102.5 258.5z M307 338q0 -98 63.5 -155.5t176.5 -57.5q154 0 246 108t92 289v41h-183q-225 0 -309 -51q-86 -53 -86 -174zM264 1309q4 137 54 209q51 74 141 73q41 0 69 -14q41 -20 70 -47l57 -55q12 -12 39 -29q16 -10 29 -10q37 0 55 37q16 35 21 118h125q-4 -137 -54 -209 q-51 -74 -141 -73q-41 0 -69 14q-41 20 -70 47l-57 55q-12 12 -39 29q-16 10 -29 10q-37 0 -55 -37q-16 -35 -21 -118h-125z" />
<glyph unicode="&#xe4;" horiz-adv-x="1253" d="M123 326q0 188 127 284.5t377 96.5h258v18q0 125 -84 197q-82 70 -234 69q-90 0 -186 -22q-88 -20 -176 -70v170q106 41 196 59q95 18 185 19q244 0 362 -125q121 -127 121 -383v-639h-184v170q-66 -102 -158 -150q-96 -49 -229 -49q-170 0 -272.5 96.5t-102.5 258.5z M307 338q0 -98 63.5 -155.5t176.5 -57.5q154 0 246 108t92 289v41h-183q-225 0 -309 -51q-86 -53 -86 -174zM297 1350v202h203v-202h-203zM688 1350v202h203v-202h-203z" />
<glyph unicode="&#xe5;" horiz-adv-x="1253" d="M123 326q0 188 127 284.5t377 96.5h258v18q0 125 -84 197q-82 70 -234 69q-90 0 -186 -22q-88 -20 -176 -70v170q106 41 196 59q95 18 185 19q244 0 362 -125q121 -127 121 -383v-639h-184v170q-66 -102 -158 -150q-96 -49 -229 -49q-170 0 -272.5 96.5t-102.5 258.5z M307 338q0 -98 63.5 -155.5t176.5 -57.5q154 0 246 108t92 289v41h-183q-225 0 -309 -51q-86 -53 -86 -174zM320 1524q0 115 79.5 194.5t194.5 79.5t194.5 -80t79.5 -194.5t-79.5 -194.5t-194.5 -80t-194.5 80t-79.5 195zM442 1523.5q0 -65.5 43 -108.5t109 -43t109 43 t43 109q0 63 -43 106q-45 45 -109 45q-66 0 -109 -43t-43 -108.5z" />
<glyph unicode="&#xe6;" horiz-adv-x="2009" d="M123 326q0 188 127 284.5t377 96.5h258v18q0 125 -84 197q-82 70 -234 69q-90 0 -186 -22q-88 -20 -176 -70v170q106 41 196 59q95 18 185 19q145 0 248 -47q106 -49 161 -137q78 92 181 137q111 47 237 47q225 0 359 -146q131 -143 131 -395v-90h-846q12 -188 114 -291 q100 -100 285 -100q106 0 205 27q92 25 199 79v-174q-100 -43 -203 -63q-109 -23 -211 -23q-172 0 -291 60q-125 63 -201 180q-72 -117 -182 -180q-104 -59 -250 -60q-190 0 -294.5 92.5t-104.5 262.5zM307 338q0 -98 63.5 -155.5t176.5 -57.5q154 0 246 108t92 289v41h-183 q-225 0 -309 -51q-86 -53 -86 -174zM1063 659h655q0 152 -84 242t-219 90q-152 0 -246 -88q-90 -84 -106 -244z" />
<glyph unicode="&#xe7;" horiz-adv-x="1124" d="M113 559q0 272 151.5 430t411.5 158q94 0 166 -17q78 -18 157 -53v-172q-72 41 -157 64q-84 23 -158 22q-180 0 -278.5 -114.5t-98.5 -317.5q0 -206 99 -319q98 -113 278 -113q74 0 158 23q86 23 157 63v-170q-70 -33 -159 -53q-82 -18 -176 -19q-252 0 -401.5 158 t-149.5 430zM434 -240q33 -18 71 -24q49 -8 84 -8q57 0 88 24.5t31 69.5q0 29 -22 74q-27 51 -66 104h119q51 -57 82 -115q27 -51 27 -100q0 -90 -59.5 -135t-178.5 -45q-47 0 -90 6t-86 18v131z" />
<glyph unicode="&#xe8;" horiz-adv-x="1259" d="M113 549q0 270 149 436q147 162 400 162q225 0 358 -146q131 -143 131 -395v-90h-846q12 -188 115 -289q104 -100 285 -100q100 0 206 27q94 25 197 77v-174q-94 -41 -202.5 -63.5t-211.5 -22.5q-268 0 -424 156q-157 158 -157 422zM311 659h656q-4 156 -84 242 q-84 90 -219 90q-152 0 -246 -88q-91 -84 -107 -244zM309 1638h197l282 -374h-153z" />
<glyph unicode="&#xe9;" horiz-adv-x="1259" d="M113 549q0 270 149 436q147 162 400 162q225 0 358 -146q131 -143 131 -395v-90h-846q12 -188 115 -289q104 -100 285 -100q100 0 206 27q94 25 197 77v-174q-94 -41 -202.5 -63.5t-211.5 -22.5q-268 0 -424 156q-157 158 -157 422zM311 659h656q-4 156 -84 242 q-84 90 -219 90q-152 0 -246 -88q-91 -84 -107 -244zM510 1262l280 376h199l-326 -376h-153z" />
<glyph unicode="&#xea;" horiz-adv-x="1259" d="M113 549q0 270 149 436q147 162 400 162q225 0 358 -146q131 -143 131 -395v-90h-846q12 -188 115 -289q104 -100 285 -100q100 0 206 27q94 25 197 77v-174q-94 -41 -202.5 -63.5t-211.5 -22.5q-268 0 -424 156q-157 158 -157 422zM311 659h656q-4 156 -84 242 q-84 90 -219 90q-152 0 -246 -88q-91 -84 -107 -244zM332 1262l245 376h148l245 -376h-139l-180 245l-180 -245h-139z" />
<glyph unicode="&#xeb;" horiz-adv-x="1259" d="M113 549q0 270 149 436q147 162 400 162q225 0 358 -146q131 -143 131 -395v-90h-846q12 -188 115 -289q104 -100 285 -100q100 0 206 27q94 25 197 77v-174q-94 -41 -202.5 -63.5t-211.5 -22.5q-268 0 -424 156q-157 158 -157 422zM311 659h656q-4 156 -84 242 q-84 90 -219 90q-152 0 -246 -88q-91 -84 -107 -244zM354 1350v202h203v-202h-203zM745 1350v202h203v-202h-203z" />
<glyph unicode="&#xec;" horiz-adv-x="567" d="M193 0v1120h184v-1120h-184zM-57 1638h197l282 -374h-153z" />
<glyph unicode="&#xed;" horiz-adv-x="567" d="M193 0v1120h184v-1120h-184zM144 1262l280 376h199l-326 -376h-153z" />
<glyph unicode="&#xee;" horiz-adv-x="567" d="M193 0v1120h184v-1120h-184zM-34 1262l245 376h148l245 -376h-139l-180 245l-180 -245h-139z" />
<glyph unicode="&#xef;" horiz-adv-x="567" d="M193 0v1120h184v-1120h-184zM-12 1350v202h203v-202h-203zM379 1350v202h203v-202h-203z" />
<glyph unicode="&#xf0;" horiz-adv-x="1251" d="M113 537q0 248 139 405q137 156 358 156q27 0 43 -2q2 0 28 -3t42 -6l-160 181l-319 -107l-33 99l281 92l-181 204h228l127 -145l333 111l33 -97l-295 -98l164 -186q123 -141 182 -287q57 -141 58 -317q0 -254 -141.5 -410t-373 -156t-372.5 156t-141 410zM307 537 q0 -188 86 -299t234 -111q145 0 231 111q88 113 88 299q0 125 -26 217q-29 96 -82 161q-27 10 -95 25q-39 8 -84 8q-168 0 -260 -108q-92 -106 -92 -303z" />
<glyph unicode="&#xf1;" horiz-adv-x="1296" d="M186 0v1120h185v-174q63 100 155 152q88 49 207 49q193 0 291 -119q100 -123 100 -352v-676h-184v670q0 158 -61.5 237.5t-186.5 79.5q-150 0 -235.5 -94t-85.5 -260v-633h-185zM334 1309q4 137 54 209q51 74 141 73q41 0 69 -14q41 -20 70 -47l57 -55q12 -12 39 -29 q16 -10 29 -10q37 0 55 37q16 35 21 118h125q-4 -137 -54 -209q-51 -74 -141 -73q-41 0 -69 14q-41 20 -70 47l-57 55q-12 12 -39 29q-16 10 -29 10q-37 0 -55 -37q-16 -35 -21 -118h-125z" />
<glyph unicode="&#xf2;" horiz-adv-x="1251" d="M113 559q0 272 137 432q135 156 377 156q240 0 377 -155.5t137 -432t-137.5 -432.5t-376.5 -156q-242 0 -377 156q-137 160 -137 432zM307 559q0 -201 86 -317q84 -115 234 -115q147 0 233 116.5t86 315.5t-86 315.5t-233.5 116.5t-233.5 -116.5t-86 -315.5zM285 1638 h197l282 -374h-153z" />
<glyph unicode="&#xf3;" horiz-adv-x="1251" d="M113 559q0 272 137 432q135 156 377 156q240 0 377 -155.5t137 -432t-137.5 -432.5t-376.5 -156q-242 0 -377 156q-137 160 -137 432zM307 559q0 -201 86 -317q84 -115 234 -115q147 0 233 116.5t86 315.5t-86 315.5t-233.5 116.5t-233.5 -116.5t-86 -315.5zM486 1262 l280 376h199l-326 -376h-153z" />
<glyph unicode="&#xf4;" horiz-adv-x="1251" d="M113 559q0 272 137 432q135 156 377 156q240 0 377 -155.5t137 -432t-137.5 -432.5t-376.5 -156q-242 0 -377 156q-137 160 -137 432zM307 559q0 -201 86 -317q84 -115 234 -115q147 0 233 116.5t86 315.5t-86 315.5t-233.5 116.5t-233.5 -116.5t-86 -315.5zM308 1262 l245 376h148l245 -376h-139l-180 245l-180 -245h-139z" />
<glyph unicode="&#xf5;" horiz-adv-x="1251" d="M113 559q0 272 137 432q135 156 377 156q240 0 377 -155.5t137 -432t-137.5 -432.5t-376.5 -156q-242 0 -377 156q-137 160 -137 432zM307 559q0 -201 86 -317q84 -115 234 -115q147 0 233 116.5t86 315.5t-86 315.5t-233.5 116.5t-233.5 -116.5t-86 -315.5zM297 1309 q4 137 54 209q51 74 141 73q41 0 69 -14q41 -20 70 -47l57 -55q12 -12 39 -29q16 -10 29 -10q37 0 55 37q16 35 21 118h125q-4 -137 -54 -209q-51 -74 -141 -73q-41 0 -69 14q-41 20 -70 47l-57 55q-12 12 -39 29q-16 10 -29 10q-37 0 -55 -37q-16 -35 -21 -118h-125z" />
<glyph unicode="&#xf6;" horiz-adv-x="1251" d="M113 559q0 272 137 432q135 156 377 156q240 0 377 -155.5t137 -432t-137.5 -432.5t-376.5 -156q-242 0 -377 156q-137 160 -137 432zM307 559q0 -201 86 -317q84 -115 234 -115q147 0 233 116.5t86 315.5t-86 315.5t-233.5 116.5t-233.5 -116.5t-86 -315.5zM330 1350 v202h203v-202h-203zM721 1350v202h203v-202h-203z" />
<glyph unicode="&#xf7;" horiz-adv-x="1714" d="M217 557v170h1282v-170h-1282zM735 150v245h246v-245h-246zM735 889v246h246v-246h-246z" />
<glyph unicode="&#xf8;" horiz-adv-x="1251" d="M72 -16l149 182q-53 74 -82 176q-27 94 -26 217q0 272 137 432q135 156 377 156q92 0 172 -25q78 -25 147 -78l139 168l95 -79l-146 -179q51 -76 80 -176q27 -94 27 -219q0 -276 -137.5 -432t-376.5 -156q-90 0 -176 27q-80 25 -144 76l-139 -168zM307 545 q0 -66 10.5 -127.5t28.5 -100.5l488 592q-45 43 -93 62q-49 20 -114 20q-150 0 -236 -117q-84 -114 -84 -329zM418 209q35 -39 92 -62q49 -20 117 -20q147 0 233 116.5t86 315.5q0 72 -10 137q-9 58 -31 105z" />
<glyph unicode="&#xf9;" horiz-adv-x="1296" d="M174 442v678h184v-671q0 -158 61.5 -238t186.5 -80q150 0 236 94t86 260v635h184v-1120h-184v172q-70 -104 -156 -152q-88 -49 -205 -49q-193 0 -293 119t-100 352zM293 1638h197l282 -374h-153z" />
<glyph unicode="&#xfa;" horiz-adv-x="1296" d="M174 442v678h184v-671q0 -158 61.5 -238t186.5 -80q150 0 236 94t86 260v635h184v-1120h-184v172q-70 -104 -156 -152q-88 -49 -205 -49q-193 0 -293 119t-100 352zM494 1262l280 376h199l-326 -376h-153z" />
<glyph unicode="&#xfb;" horiz-adv-x="1296" d="M174 442v678h184v-671q0 -158 61.5 -238t186.5 -80q150 0 236 94t86 260v635h184v-1120h-184v172q-70 -104 -156 -152q-88 -49 -205 -49q-193 0 -293 119t-100 352zM316 1262l245 376h148l245 -376h-139l-180 245l-180 -245h-139z" />
<glyph unicode="&#xfc;" horiz-adv-x="1296" d="M174 442v678h184v-671q0 -158 61.5 -238t186.5 -80q150 0 236 94t86 260v635h184v-1120h-184v172q-70 -104 -156 -152q-88 -49 -205 -49q-193 0 -293 119t-100 352zM338 1350v202h203v-202h-203zM729 1350v202h203v-202h-203z" />
<glyph unicode="&#xfd;" horiz-adv-x="1210" d="M61 1120h195l350 -876l350 876h195l-492 -1224q-76 -197 -151 -261q-74 -61 -199 -61h-147v154h108q74 0 117 36.5t94 169.5l33 84zM465 1262l280 376h199l-326 -376h-153z" />
<glyph unicode="&#xfe;" horiz-adv-x="1298" d="M186 -426v1982h185v-606q55 96 147 148q88 49 211 49q203 0 332 -162q127 -160 127 -426t-127 -426q-129 -162 -332 -162q-123 0 -211 49q-92 51 -147 148v-594h-185zM371 559q0 -201 84 -319q82 -115 229 -115t229 115q84 119 84 319q0 199 -84 318q-82 117 -229 116.5 t-229 -116.5q-84 -119 -84 -318z" />
<glyph unicode="&#xff;" horiz-adv-x="1210" d="M61 1120h195l350 -876l350 876h195l-492 -1224q-76 -197 -151 -261q-74 -61 -199 -61h-147v154h108q74 0 117 36.5t94 169.5l33 84zM309 1350v202h203v-202h-203zM700 1350v202h203v-202h-203z" />
<glyph unicode="&#x106;" horiz-adv-x="1429" d="M115 745.5q0 356.5 194 567.5q193 207 535 207q139 0 252 -35q121 -37 223 -107v-213q-102 96 -217 142q-119 47 -246 47q-256 0 -391 -156q-137 -160 -137 -452.5t137 -452.5q135 -156 391 -156q127 0 246 47q115 45 217 142v-211q-113 -74 -225.5 -109t-249.5 -35 q-342 0 -535 207q-194 211 -194 567.5zM672 1635l196 264h185l-228 -264h-153z" />
<glyph unicode="&#x107;" horiz-adv-x="1124" d="M113 559q0 272 151.5 430t411.5 158q94 0 166 -17q78 -18 157 -53v-172q-72 41 -157 64q-84 23 -158 22q-180 0 -278.5 -114.5t-98.5 -317.5q0 -206 99 -319q98 -113 278 -113q74 0 158 23q86 23 157 63v-170q-70 -33 -159 -53q-82 -18 -176 -19q-252 0 -401.5 158 t-149.5 430zM508 1262l280 376h199l-326 -376h-153z" />
<glyph unicode="&#x10c;" horiz-adv-x="1429" d="M115 745.5q0 356.5 194 567.5q193 207 535 207q139 0 252 -35q121 -37 223 -107v-213q-102 96 -217 142q-119 47 -246 47q-256 0 -391 -156q-137 -160 -137 -452.5t137 -452.5q135 -156 391 -156q127 0 246 47q115 45 217 142v-211q-113 -74 -225.5 -109t-249.5 -35 q-342 0 -535 207q-194 211 -194 567.5zM508 1901h139l166 -178l166 178h139l-211 -266h-188z" />
<glyph unicode="&#x10d;" horiz-adv-x="1124" d="M113 559q0 272 151.5 430t411.5 158q94 0 166 -17q78 -18 157 -53v-172q-72 41 -157 64q-84 23 -158 22q-180 0 -278.5 -114.5t-98.5 -317.5q0 -206 99 -319q98 -113 278 -113q74 0 158 23q86 23 157 63v-170q-70 -33 -159 -53q-82 -18 -176 -19q-252 0 -401.5 158 t-149.5 430zM330 1638h139l180 -245l180 245h139l-245 -376h-148z" />
<glyph unicode="&#x111;" horiz-adv-x="1298" d="M113 559q0 266 127 426q129 162 331 162q125 0 213 -49t146 -148v334h-326v125h326v147h184v-147h154v-125h-154v-1284h-184v168q-57 -98 -145.5 -147.5t-213.5 -49.5q-203 0 -331 162q-127 160 -127 426zM303 559q0 -201 84 -319q82 -115 229.5 -115t229.5 115 q84 119 84 319q0 199 -84 318q-84 117 -229.5 116.5t-229.5 -116.5q-84 -119 -84 -318z" />
<glyph unicode="&#x11e;" horiz-adv-x="1585" d="M115 745.5q0 360.5 198 569.5q197 205 547 205q152 0 277 -35q137 -39 243 -107v-215q-109 92 -237 144q-121 47 -266 47q-273 0 -412 -154q-137 -152 -137 -455t137 -454q138 -154 412 -154q108 0 190 19q88 18 152 57v401h-330v166h530v-641q-115 -82 -258 -125 q-141 -43 -301 -43q-350 0 -547 205q-198 209 -198 569.5zM482 1901h118q12 -53 62 -82q51 -29 133 -29q84 0 131 26.5t64 84.5h118q-8 -119 -90 -180q-80 -61 -223 -61.5t-223 61.5q-82 61 -90 180z" />
<glyph unicode="&#x11f;" horiz-adv-x="1298" d="M113 573q0 258 127 416t331 158q125 0 213 -49q86 -47 146 -148v170h184v-981q0 -287 -127 -426t-389 -139q-102 0 -182 14q-94 16 -168 45v179q84 -45 159.5 -65.5t161.5 -20.5q182 0 271 94q90 96 90 286v91q-59 -100 -146 -148q-88 -49 -213 -49q-205 0 -331.5 157.5 t-126.5 415.5zM303 573.5q0 -200.5 82 -309.5q82 -111 231.5 -110.5t231.5 110.5q82 109 82 309.5t-82 309.5q-82 111 -231.5 110.5t-231.5 -110.5q-82 -109 -82 -309.5zM338 1608h118q12 -78 60 -113q49 -37 135 -37q84 0 133 37t62 113h118q-8 -143 -90 -215t-223 -72 t-223 72t-90 215z" />
<glyph unicode="&#x130;" horiz-adv-x="602" d="M201 0v1493h202v-1493h-202zM201 1667v205h204v-205h-204z" />
<glyph unicode="&#x131;" horiz-adv-x="567" d="M193 0v1120h184v-1120h-184z" />
<glyph unicode="&#x141;" horiz-adv-x="1150" d="M-14 575l225 158v760h203v-616l313 219l80 -111l-393 -274v-541h727v-170h-930v571l-148 -106z" />
<glyph unicode="&#x142;" horiz-adv-x="581" d="M2 684l197 141v731h184v-602l125 90l76 -106l-201 -141v-797h-184v666l-123 -88z" />
<glyph unicode="&#x152;" horiz-adv-x="2189" d="M115 748q0 365 223 555q224 190 657 190h1047v-170h-742v-442h711v-170h-711v-541h760v-170h-1065q-433 0 -657 190q-223 191 -223 558zM328 747.5q0 -288.5 159 -432.5q162 -145 482 -145h129v1153h-129q-324 0 -482 -143q-159 -144 -159 -432.5z" />
<glyph unicode="&#x153;" horiz-adv-x="2093" d="M113 559q0 272 137 432q135 156 377 156q141 0 245 -55q109 -57 172 -164q78 111 193 164q117 55 260 55q225 0 358 -146q131 -143 132 -395v-90h-846q12 -188 114 -289q104 -100 285 -100q96 0 207 27q92 23 197 77v-174q-100 -43 -203 -63q-109 -23 -211 -23 q-162 0 -281 56q-123 57 -202 163q-72 -111 -175 -165q-100 -53 -245 -54q-242 0 -377 156q-137 160 -137 432zM307 559q0 -201 86 -317q84 -115 234 -115q147 0 233 116.5t86 315.5t-86 315.5t-233.5 116.5t-233.5 -116.5t-86 -315.5zM1147 659h655q-4 156 -84 242 q-84 90 -219 90q-152 0 -246 -88q-90 -84 -106 -244z" />
<glyph unicode="&#x15e;" horiz-adv-x="1298" d="M135 1094q0 199 139 313q137 113 385 113q106 0 213 -19q98 -16 224 -57v-197q-106 51 -217 82q-98 27 -197 27q-166 0 -254 -64q-90 -66 -90 -182q0 -100 59 -149q61 -51 226 -82l122 -25q225 -43 334 -152q106 -106 107 -290q0 -217 -146 -328q-147 -113 -426 -113 q-106 0 -225 25q-125 25 -248 70v208q133 -74 242 -104q121 -35 231 -35q172 0 266.5 67.5t94.5 194.5q0 111 -67.5 172.5t-221.5 92.5l-123 24q-225 45 -327 141q-101 95 -101 267zM430 -240q33 -18 71 -24q49 -8 84 -8q57 0 88 24.5t31 69.5q0 29 -22 74q-27 51 -66 104 h119q51 -57 82 -115q27 -51 27 -100q0 -90 -59.5 -135t-178.5 -45q-47 0 -90 6t-86 18v131z" />
<glyph unicode="&#x15f;" horiz-adv-x="1064" d="M111 41v190q100 -51 200 -79q94 -27 197 -27q127 0 201 45q70 43 69 125q0 74 -51 115t-221 77l-64 15q-170 37 -247 110q-76 74 -76 205q0 156 112 244q111 86 318 86q109 0 192 -14q94 -16 166 -46v-174q-68 35 -162 60q-80 20 -174 20q-139 0 -206.5 -43t-67.5 -125 q0 -63 49 -100q47 -35 197 -70l63 -14q197 -43 279 -119t82 -213q0 -156 -123 -248q-121 -90 -340 -90q-98 0 -187 17q-91 16 -206 53zM314 -240q33 -18 71 -24q49 -8 84 -8q57 0 88 24.5t31 69.5q0 29 -22 74q-27 51 -66 104h119q51 -57 82 -115q27 -51 27 -100 q0 -90 -59.5 -135t-178.5 -45q-47 0 -90 6t-86 18v131z" />
<glyph unicode="&#x160;" horiz-adv-x="1298" d="M135 1094q0 199 139 313q137 113 385 113q106 0 213 -19q98 -16 224 -57v-197q-106 51 -217 82q-98 27 -197 27q-166 0 -254 -64q-90 -66 -90 -182q0 -100 59 -149q61 -51 226 -82l122 -25q225 -43 334 -152q106 -106 107 -290q0 -217 -146 -328q-147 -113 -426 -113 q-106 0 -225 25q-125 25 -248 70v208q133 -74 242 -104q121 -35 231 -35q172 0 266.5 67.5t94.5 194.5q0 111 -67.5 172.5t-221.5 92.5l-123 24q-225 45 -327 141q-101 95 -101 267zM346 1901h139l166 -178l166 178h139l-211 -266h-188z" />
<glyph unicode="&#x161;" horiz-adv-x="1064" d="M111 41v190q100 -51 200 -79q94 -27 197 -27q127 0 201 45q70 43 69 125q0 74 -51 115t-221 77l-64 15q-170 37 -247 110q-76 74 -76 205q0 156 112 244q111 86 318 86q109 0 192 -14q94 -16 166 -46v-174q-68 35 -162 60q-80 20 -174 20q-139 0 -206.5 -43t-67.5 -125 q0 -63 49 -100q47 -35 197 -70l63 -14q197 -43 279 -119t82 -213q0 -156 -123 -248q-121 -90 -340 -90q-98 0 -187 17q-91 16 -206 53zM216 1638h139l180 -245l180 245h139l-245 -376h-148z" />
<glyph unicode="&#x178;" horiz-adv-x="1249" d="M-4 1493h217l414 -614l411 614h217l-528 -782v-711h-203v711zM330 1667v203h203v-203h-203zM721 1667v203h203v-203h-203z" />
<glyph unicode="&#x17d;" horiz-adv-x="1402" d="M92 0v154l944 1169h-921v170h1173v-154l-944 -1169h967v-170h-1219zM397 1901h139l166 -178l166 178h139l-211 -266h-188z" />
<glyph unicode="&#x17e;" horiz-adv-x="1073" d="M88 0v168l692 805h-667v147h874v-168l-692 -805h692v-147h-899zM220 1638h139l180 -245l180 245h139l-245 -376h-148z" />
<glyph unicode="&#x192;" horiz-adv-x="1302" d="M31 -217q53 -35 100 -49q53 -16 96 -17q96 0 152 68q53 66 88 235l137 685h-248v143h279l63 330q37 182 135.5 280t249.5 98q47 0 102.5 -10t96.5 -26v-164q-35 27 -78 43q-37 14 -84 14q-95 0 -153 -61q-57 -59 -82 -193l-60 -311h287v-143h-317l-127 -635 q-59 -287 -152 -389q-96 -106 -280 -107q-53 0 -109 10q-43 8 -96 33v166z" />
<glyph unicode="&#x2c6;" d="M193 1262l245 376h148l245 -376h-139l-180 245l-180 -245h-139z" />
<glyph unicode="&#x2c7;" d="M193 1638h139l180 -245l180 245h139l-245 -376h-148z" />
<glyph unicode="&#x2d8;" d="M199 1608h118q12 -78 60 -113q49 -37 135 -37q84 0 133 37t62 113h118q-8 -143 -90 -215t-223 -72t-223 72t-90 215z" />
<glyph unicode="&#x2d9;" d="M410 1348v204h204v-204h-204z" />
<glyph unicode="&#x2da;" d="M238 1524q0 115 79.5 194.5t194.5 79.5t194.5 -80t79.5 -194.5t-79.5 -194.5t-194.5 -80t-194.5 80t-79.5 195zM360 1523.5q0 -65.5 43 -108.5t109 -43t109 43t43 109q0 63 -43 106q-45 45 -109 45q-66 0 -109 -43t-43 -108.5z" />
<glyph unicode="&#x2db;" d="M332 -215q0 49 26 100q31 57 82 115h119q-46 -61 -67 -104q-20 -41 -21 -76q0 -49 27 -70q29 -23 82 -22q23 0 63 8q27 6 62 22v-133q-18 -4 -72 -14q-35 -6 -64 -6q-123 0 -180 43t-57 137z" />
<glyph unicode="&#x2dc;" d="M182 1309q4 137 54 209q51 74 141 73q41 0 69 -14q41 -20 70 -47l57 -55q12 -12 39 -29q16 -10 29 -10q37 0 55 37q16 35 21 118h125q-4 -137 -54 -209q-51 -74 -141 -73q-41 0 -69 14q-41 20 -70 47l-57 55q-12 12 -39 29q-16 10 -29 10q-37 0 -55 -37q-16 -35 -21 -118 h-125z" />
<glyph unicode="&#x2dd;" d="M240 1262l190 376h170l-223 -376h-137zM559 1262l205 376h178l-248 -376h-135z" />
<glyph unicode="&#x3a9;" horiz-adv-x="1564" d="M78 0v178h319q-158 139 -231 289q-72 145 -72 332q0 319 190.5 515.5t497.5 196.5q303 0 496 -196q193 -195 192 -506q0 -193 -71 -342q-70 -145 -232 -289h320v-178h-600v178q180 98 276 262q98 166 99 369q0 242 -132 385q-133 145 -348 145t-348 -145t-133 -385 q0 -199 100 -369q96 -164 277 -262v-178h-600z" />
<glyph unicode="&#x3c0;" horiz-adv-x="1204" d="M-31 780q28 166 99 228q74 63 237 63h889l-35 -158h-182l-105 -487q-18 -86 -22 -121q-8 -61 -8 -67q0 -57 24.5 -82t77.5 -25q25 0 39 2q2 0 24.5 3l36.5 5l-30 -141q-31 -10 -58 -12q-37 -4 -53 -4q-119 0 -178 51q-61 51 -61 151q0 39 10 117q6 53 45 234l80 376h-326 l-194 -913h-181l195 913h-41q-51 0 -84 -32q-29 -29 -39 -101h-160z" />
<glyph unicode="&#x2000;" horiz-adv-x="948" />
<glyph unicode="&#x2001;" horiz-adv-x="1900" />
<glyph unicode="&#x2002;" horiz-adv-x="948" />
<glyph unicode="&#x2003;" horiz-adv-x="1900" />
<glyph unicode="&#x2004;" horiz-adv-x="632" />
<glyph unicode="&#x2005;" horiz-adv-x="473" />
<glyph unicode="&#x2006;" horiz-adv-x="315" />
<glyph unicode="&#x2007;" horiz-adv-x="315" />
<glyph unicode="&#x2008;" horiz-adv-x="235" />
<glyph unicode="&#x2009;" horiz-adv-x="378" />
<glyph unicode="&#x200a;" horiz-adv-x="104" />
<glyph unicode="&#x2010;" horiz-adv-x="737" d="M100 479v164h539v-164h-539z" />
<glyph unicode="&#x2011;" horiz-adv-x="737" d="M100 479v164h539v-164h-539z" />
<glyph unicode="&#x2012;" horiz-adv-x="737" d="M100 479v164h539v-164h-539z" />
<glyph unicode="&#x2013;" d="M0 489v144h1024v-144h-1024z" />
<glyph unicode="&#x2014;" horiz-adv-x="2048" d="M0 489v144h2048v-144h-2048z" />
<glyph unicode="&#x2018;" horiz-adv-x="649" d="M174 1001v173l164 319h129l-82 -319v-173h-211z" />
<glyph unicode="&#x2019;" horiz-adv-x="649" d="M178 1022l82 319v152h211v-152l-164 -319h-129z" />
<glyph unicode="&#x201a;" horiz-adv-x="649" d="M174 -238l82 320v172h211v-172l-164 -320h-129z" />
<glyph unicode="&#x201c;" horiz-adv-x="1060" d="M174 1001v173l164 319h129l-82 -319v-173h-211zM584 1001v173l164 319h129l-82 -319v-173h-211z" />
<glyph unicode="&#x201d;" horiz-adv-x="1060" d="M174 1001l82 320v172h211v-172l-164 -320h-129zM584 1001l82 320v172h211v-172l-164 -320h-129z" />
<glyph unicode="&#x201e;" horiz-adv-x="1060" d="M174 -238l82 320v172h211v-172l-164 -320h-129zM584 -238l82 320v172h211v-172l-164 -320h-129z" />
<glyph unicode="&#x2020;" d="M57 920v153h367v420h176v-420h367v-153h-367v-1117h-176v1117h-367z" />
<glyph unicode="&#x2021;" d="M57 223v154h367v543h-367v153h367v420h176v-420h367v-153h-367v-543h367v-154h-367v-420h-176v420h-367z" />
<glyph unicode="&#x2022;" horiz-adv-x="1206" d="M307 762q0 123 86 209t213 86q123 0 209 -86t86 -209q0 -125 -86 -211t-211 -86t-211 86t-86 211z" />
<glyph unicode="&#x2026;" horiz-adv-x="2048" d="M236 0v254h213v-254h-213zM918 0v254h212v-254h-212zM1599 0v254h213v-254h-213z" />
<glyph unicode="&#x202f;" horiz-adv-x="378" />
<glyph unicode="&#x2030;" horiz-adv-x="2746" d="M113 1114q0 182 94 295q92 111 249.5 111t252 -108.5t94.5 -297t-94 -299.5q-92 -109 -252 -108.5t-252 111t-92 296.5zM272 1114q0 -133 49.5 -206.5t135.5 -73.5q88 0 137 73.5t49 206.5q0 131 -49 205t-137 74q-86 0 -135.5 -74t-49.5 -205zM426 -29l934 1549h160 l-934 -1549h-160zM1143 377q0 184 94 297q92 111 252 110.5t252 -111t92 -296.5q0 -184 -94 -297q-90 -109 -250 -109q-162 0 -252 109q-94 113 -94 297zM1303 377q0 -131 49 -205t137 -74q86 0 135 74t49 205t-49 205q-51 76 -135 75q-88 0 -137 -73.5t-49 -206.5z M1946 377q0 184 94 297q92 111 251.5 110.5t252 -111t92.5 -296.5q0 -184 -94 -297q-90 -109 -250 -109q-162 0 -252 109q-94 113 -94 297zM2105 377q0 -131 49.5 -205t137.5 -74q86 0 135 74t49 205t-49 205q-51 76 -135 75q-88 0 -137.5 -73.5t-49.5 -206.5z" />
<glyph unicode="&#x2039;" horiz-adv-x="817" d="M158 559v82l469 418v-191l-301 -268l301 -268v-191z" />
<glyph unicode="&#x203a;" horiz-adv-x="817" d="M193 141v191l301 268l-301 268v191l469 -418v-82z" />
<glyph unicode="&#x205f;" horiz-adv-x="473" />
<glyph unicode="&#x20ac;" horiz-adv-x="1302" d="M0 520l55 123h140q0 6 -1 22.5t-1 24.5v55v58q0 8 1 24.5t1 22.5h-195l55 123h156q39 256 194.5 401.5t391.5 145.5q104 0 190 -35q98 -39 180 -107v-213q-92 104 -176 149.5t-186 45.5q-158 0 -258 -100q-102 -102 -133 -287h577l-55 -123h-539q-2 -16 -2 -47v-58v-55 q0 -31 2 -47h447l-56 -123h-374q31 -186 133 -289q100 -100 258 -100q102 0 186 45t176 150v-211q-90 -72 -182 -109q-88 -35 -188 -35q-236 0 -391 146q-154 145 -195 403h-211z" />
<glyph unicode="&#x2122;" horiz-adv-x="2048" d="M295 1399v94h518v-94h-203v-484h-114v484h-201zM926 915v578h172l174 -256l164 256h170v-578h-113v484l-195 -303h-55l-203 303v-484h-114z" />
<glyph unicode="&#x2202;" horiz-adv-x="1058" d="M104 354q0 197 111 326t272 129q102 0 166 -45q66 -47 103 -143q16 96 22 167q8 111 8 158q0 131 -36 195q-37 66 -109 65q-57 0 -127 -57q-72 -59 -108 -59q-33 0 -60 22q-25 23 -24 53q0 61 71 111q70 49 174 49q178 0 287 -156q106 -152 107 -417q0 -336 -144 -555 q-145 -221 -358 -222q-152 0 -254 109q-101 106 -101 270zM291 270q0 -117 43 -178t123 -61q109 0 180 131q70 127 70 332q0 117 -43 178q-45 63 -123 63q-108 0 -179 -129q-71 -131 -71 -336z" />
<glyph unicode="&#x2206;" horiz-adv-x="1368" d="M-6 0l579 1473h224l579 -1473h-1382zM266 178h836l-418 1084z" />
<glyph unicode="&#x220f;" horiz-adv-x="1548" d="M156 -393v1866h1237v-1866h-240v1661h-758v-1661h-239z" />
<glyph unicode="&#x2211;" horiz-adv-x="1378" d="M25 -244l725 801l-695 739v177h1258v-193h-959l672 -717l-694 -764h1007v-192h-1314v149z" />
<glyph unicode="&#x2212;" horiz-adv-x="1714" d="M217 557v170h1282v-170h-1282z" />
<glyph unicode="&#x2215;" horiz-adv-x="339" d="M-375 -29l932 1549h160l-932 -1549h-160z" />
<glyph unicode="&#x2219;" horiz-adv-x="649" d="M219 584v254h211v-254h-211z" />
<glyph unicode="&#x221a;" horiz-adv-x="1304" d="M61 877l283 98l256 -709l516 1395h189v-96h-115l-594 -1606h-66l-319 883l-125 -45z" />
<glyph unicode="&#x221e;" horiz-adv-x="1705" d="M221 610q0 174 84 282.5t217 108.5q96 0 172 -63q78 -66 148 -201q68 138 147 203q82 66 176 66q133 0 227.5 -113t94.5 -279q0 -174 -84 -282q-82 -106 -217 -107q-92 0 -168 60q-72 57 -154 198q-70 -135 -149 -198q-78 -63 -172 -64q-137 0 -229.5 110.5t-92.5 278.5z M297 604q0 -98 59 -168q58 -68 148 -67q82 0 149 67q61 61 140 230q-51 92 -115 133q-68 43 -152 43q-100 0 -166 -66q-63 -63 -63 -172zM915 559q49 -88 115 -133t152 -45q101 0 166 68q63 66 63 172q0 98 -59 167q-58 68 -148 68q-82 0 -149 -68q-66 -65 -140 -229z" />
<glyph unicode="&#x222b;" horiz-adv-x="1064" d="M47 -223q0 57 35 88q33 31 94 31q35 0 57.5 -14.5t38.5 -43.5q8 -16 15 -59q6 -41 24 -41q102 0 119 688q0 53 2 95t2 71q12 516 107 735q96 223 297 223q82 0 131 -43t49 -106q0 -53 -33 -86q-31 -31 -86 -31q-43 0 -69.5 18.5t-41.5 55.5q-8 18 -10 51q-2 35 -20 35 q-104 0 -121 -619q0 -18 -8 -303q-18 -487 -111 -686q-96 -207 -291 -207q-82 0 -129 41q-51 46 -51 107z" />
<glyph unicode="&#x2248;" horiz-adv-x="1714" d="M217 272v179q109 80 195 112q92 35 186 35q106 0 256 -59l9 -4.5t7 -2.5t10.5 -3t12.5 -5q154 -61 248 -61q84 0 170 37q82 35 188 123v-179q-109 -80 -194 -112q-92 -35 -187 -35q-106 0 -256 59q-10 4 -16 6q-2 2 -10.5 4.5t-12.5 4.5q-154 61 -248 61q-84 0 -174 -39 q-84 -35 -184 -121zM217 662v178q109 80 195 112q92 35 186 35q106 0 256 -59q6 -2 10 -4t6 -2q14 -4 23 -9q154 -61 248 -61q84 0 170 37q82 35 188 123v-178q-100 -78 -194 -113q-92 -35 -187 -35q-106 0 -256 59q-10 4 -16 7q-2 2 -10.5 4t-12.5 4q-154 61 -248 61 q-84 0 -174 -39q-84 -34 -184 -120z" />
<glyph unicode="&#x2260;" horiz-adv-x="1714" d="M217 352v170h438l195 240h-633v168h772l256 315l125 -102l-174 -213h303v-168h-440l-195 -240h635v-170h-774l-258 -313l-125 102l174 211h-299z" />
<glyph unicode="&#x2264;" horiz-adv-x="1714" d="M217 0v170h1282v-170h-1282zM217 655v170l1282 367v-176l-960 -277l960 -274v-178z" />
<glyph unicode="&#x2265;" horiz-adv-x="1714" d="M217 0v170h1282v-170h-1282zM217 287v178l961 274l-961 277v176l1282 -367v-170z" />
<glyph unicode="&#x25ca;" horiz-adv-x="1011" d="M6 592l500 1061l500 -1061l-500 -1069zM121 592l385 -825l385 825l-385 817z" />
<glyph unicode="&#xe000;" horiz-adv-x="1120" d="M0 1120h1120v-1120h-1120v1120z" />
<glyph unicode="&#xfb01;" horiz-adv-x="1288" d="M47 977v143h176v78q0 184 86 270q88 88 266 88h185v-153h-176q-98 0 -137 -39t-39 -145v-99h690v-1120h-185v977h-505v-977h-185v977h-176zM913 1321v233h185v-233h-185z" />
<glyph unicode="&#xfb02;" horiz-adv-x="1288" d="M47 977v143h176v78q0 186 86 272t277 86h512v-1556h-185v1403h-329q-98 0 -137 -39t-39 -145v-99h303v-143h-303v-977h-185v977h-176z" />
<glyph d="M215 1294v203h203v-203h-203zM606 1294v203h203v-203h-203z" />
<glyph d="M371 1262l196 264h185l-228 -264h-153z" />
<glyph d="M182 1294q0 102 51 160q53 59 138 59q41 0 67 -8q35 -10 78 -35l57 -30q23 -12 39 -19q18 -6 33 -6q31 0 51 25q20 23 21 67v6h125q-4 -104 -54 -159q-53 -59 -135 -60q-37 0 -63 9q-37 10 -82 34l-57 33q-8 6 -41 19q-16 6 -27 6q-35 0 -55 -25q-20 -23 -21 -70v-6h-125 z" />
<glyph d="M268 1526h187l196 -264h-153z" />
<glyph d="M207 1262l211 266h188l211 -266h-139l-166 178l-166 -178h-139z" />
<glyph d="M207 1528h139l166 -178l166 178h139l-211 -266h-188z" />
<glyph horiz-adv-x="819" d="M63 854v121l392 528h166v-540h135v-109h-135v-186h-144v186h-414zM168 963h309v419z" />
<glyph d="M199 1528h118q12 -53 62 -82q51 -29 133 -29q84 0 131 26.5t64 84.5h118q-8 -119 -90 -180q-80 -61 -223 -61.5t-223 61.5q-82 61 -90 180z" />
<glyph d="M410 1294v205h204v-205h-204z" />
</font>
</defs>
</svg>
